#TITLE:四季摇滚混音;
#SUBTITLE:;
#ARTIST:BANYA;
#TITLETRANSLIT:;
#SUBTITLETRANSLIT:;
#ARTISTTRANSLIT:;
#CREDIT:;
#BANNER:ļҡ_logo.jpg;
#BACKGROUND:ļҡ_BG.jpg;
#LYRICSPATH:;
#CDTITLE:Lan.png;
#MUSIC:ļҡ.mp3;
#OFFSET:-0.040;
#SAMPLESTART:100.000;
#SAMPLELENGTH:12.000;
#SELECTABLE:YES;
#BPMS:0.000=168.000;
#STOPS:;
#BGCHANGES:;
// cache tags:
#FIRSTBEAT:4.000;
#LASTBEAT:496.000;
#SONGFILENAME:Songs/Super Dancer Online/Four Seasons Rock Remix/ļҡ.sm;
#HASMUSIC:1;
#HASBANNER:1;
#MUSICLENGTH:179.817;
// end cache tags

//---------------dance-single - sky----------------
#NOTES:
     dance-single:
     sky:
     Challenge:
     11:
     1.000,1.000,1.000,0.133,1.000,1346.000,290.000,24.000,0.000,47.000:

0000
0000
0000
0000
,
0010
0001
0010
0100
1000
0001
0010
0100
,
1000
0100
0001
0010
0100
1000
0100
0010
0100
0001
0010
0100
1000
0001
0010
0100
,
1001
0010
0100
1000
0010
0001
0010
1000
,
0100
0010
0001
0010
0100
0010
0100
1000
0100
0001
0010
0100
1000
0001
0010
0100
,
0010
0100
1000
0100
0010
0100
1000
0100
0010
0100
1000
0100
0010
0100
1000
0100
,
2010
0011
0010
3011
,
0110
0000
1001
0000
0110
1000
0101
1000
,
0110
0001
0010
0100
1000
0001
0010
0100
,
0010
0001
0010
0100
1000
0001
0010
0100
0010
0001
0010
0100
1000
0010
0100
1000
,
0001
0010
0100
0010
0001
0010
0100
0010
0001
0010
0100
0010
0001
0010
0100
0010
,
2001
0011
0001
3011
,
1001
0000
0110
0000
1001
0100
1001
0100
,
1010
0001
0010
1000
0100
0001
0010
1000
,
0100
0001
0010
0100
1000
0010
0100
1000
0100
0001
0010
0100
1000
0100
0010
0100
,
0001
0010
1000
0100
0001
0010
1000
0100
0001
0010
1000
0100
0001
0010
1000
0100
,
2011
0101
0011
3101
,
1110
0101
1110
0101
,
0011
0000
0110
0000
0011
0110
0011
0110
,
1001
0010
1001
0010
1001
0010
1001
0010
,
1100
0010
1100
0010
1100
0010
1100
0010
,
1101
0001
1001
0001
1101
0001
1001
0001
,
0110
1000
0101
1000
0101
1000
0101
1000
,
1101
0000
0100
0000
0101
0000
0100
0000
1010
0100
0010
0100
0010
0100
0010
0100
,
0011
0000
1000
0010
1000
0000
0010
1000
0010
0000
1000
0000
0010
0000
1000
0000
,
0111
1000
0111
1000
0111
1000
0111
1000
,
0110
0000
0001
0100
0001
0100
0001
0100
0001
0000
0100
0000
0001
0000
0100
0000
,
1101
0010
1101
0010
1101
0010
1101
0010
,
1100
0000
0010
1100
0010
1100
0010
1100
0010
0000
1100
0000
0010
0000
0100
0000
,
1011
0100
1011
0100
1011
0100
1011
0100
,
1001
0000
0101
0010
0101
0010
0101
0010
0101
0000
0010
0000
0101
0000
1000
0000
,
1110
0001
0111
1000
1110
0001
0111
1000
,
0101
1000
0100
0010
1000
0001
0010
0100
0001
1000
0100
0010
1000
0010
1000
0100
,
0010
0001
0100
1000
0001
0010
0100
0010
0100
1000
0100
0010
0100
0001
1000
0100
,
0010
0000
0001
0010
1100
0000
1000
0100
0001
1000
0100
0010
0001
1000
0100
0010
,
0001
0010
0100
1000
0001
0010
0100
1000
0001
0010
0100
1000
0001
0010
0100
1000
,
0001
0100
0010
0001
1000
0100
0010
0001
0100
0010
1000
0100
0010
0100
0010
0001
,
1000
0000
0010
0100
1001
0000
0100
0010
0001
1000
0100
0010
0001
1000
0100
0010
,
0001
0010
0100
1000
0001
0010
0100
1000
0001
0010
0100
1000
0001
0010
0100
1000
,
0010
0001
0100
0010
1000
0100
0010
0001
0100
0010
1000
0001
1000
0100
0010
0001
,
0100
0000
1000
1000
0011
0000
1000
0100
0001
1000
0100
0010
0001
1000
0100
0010
,
0001
0010
0100
1000
0001
0010
0100
1000
0001
0010
0100
1000
0001
0010
0100
1000
,
0100
0010
0100
1000
0001
0010
0100
1000
0010
0001
0010
0100
0001
0010
0100
1000
,
0001
0100
0010
0100
0001
1000
0001
0100
0010
0001
1000
0100
0001
0010
0100
1000
,
0001
0100
0001
0010
0001
0100
0001
1000
0100
0010
0100
0010
0001
0010
1000
0100
,
0010
0001
0010
0001
0100
0010
0100
0010
1000
0100
1000
0100
1000
0010
1000
0010
,
2001
0000
0010
0001
0010
0000
0001
0010
0001
0000
0010
0000
3001
0000
0000
0000
,
0001
0100
0001
0010
0001
1000
0001
0100
0001
0010
0001
0100
0001
1000
0001
0100
,
0011
0100
0010
0100
0010
0100
0010
0100
0010
0100
0010
0100
0010
0100
0010
0100
,
0001
1000
0010
0100
0001
0100
0010
1000
0010
0100
0001
0100
0010
1000
0010
0100
,
0011
1000
0001
1000
0001
1000
0001
1000
0001
1000
0001
1000
0001
1000
0001
1000
,
0001
0100
1000
0100
0010
0100
1000
0100
0001
0100
1000
0100
0010
0100
1000
0100
,
1010
0100
1010
0100
1010
0100
1010
0100
1001
0010
1001
0010
1001
0010
1001
0010
,
0100
0010
1000
0100
0001
0010
1000
0100
0001
0010
1000
0100
0001
0010
1000
0100
,
0011
1000
0011
1000
0011
1000
0011
1000
0011
1000
0011
1000
0011
1000
0011
1000
,
0110
0001
0110
0001
0110
0001
0110
0001
0110
0001
0110
0001
0110
0001
0110
0001
,
1010
0100
1000
0100
0010
0001
0100
0010
1000
0010
1000
0100
0010
0001
1000
0100
,
0001
0000
1000
0000
0001
0000
1000
0000
0001
1000
0001
1000
0001
1000
0001
1000
,
0110
0000
0000
0000
0000
0000
0000
0000
0001
0000
0000
0000
0010
0001
0010
0000
0100
0000
0000
0000
0000
0000
0000
0000
0010
0000
0000
0000
0100
0000
0000
0000
,
0001
2000
0000
3100
,
0001
0000
0000
0000
0100
0010
0100
0000
1000
0000
0000
0000
0010
0000
0000
0000
0100
0000
0000
0000
0000
0000
0000
0000
0010
0001
0000
0000
0000
0000
0000
0000
,
0001
0020
0000
0031
,
1000
0000
0100
0010
0001
0000
0100
0010
,
1000
0000
0001
0010
0100
0000
0010
0001
,
1000
0000
0010
0100
1000
0000
0100
0001
,
1000
0000
0100
0010
0001
0000
0100
0010
,
2000
0000
0000
0000
3100
0010
1000
0010
,
0002
0000
0000
0000
0003
0100
1000
0100
,
0020
0000
0000
0000
0030
0100
1000
0100
,
0010
0002
0000
0000
0000
0013
0100
0010
,
0001
0000
0000
0000
0000
0000
0000
0000
0100
0000
0000
0000
0000
0000
0000
0000
0100
0000
0000
0000
1000
0000
0000
0000
0010
0001
0000
0000
0000
0000
0000
0000
,
0001
0000
0000
0000
0010
0001
0010
0000
0100
0000
0000
0000
1000
0000
0000
0000
0001
0000
0000
0000
0100
0010
0100
0000
1000
0000
0000
0000
0100
0000
0000
0000
,
0010
0000
0001
0000
0010
0001
0010
0001
0010
0001
0010
0001
0010
0000
0000
0000
,
0200
0000
0001
0000
0001
0001
0301
0001
,
0110
0000
0000
0000
0000
0000
0000
0000
0001
0000
0000
0000
0100
0010
0100
0000
1000
0000
0000
0000
0000
0000
0000
0000
0100
0000
0000
0000
0010
0000
0000
0000
,
0001
0200
0000
1300
,
0001
0000
0000
0000
0100
0010
0100
0000
1000
0000
0000
0000
0100
0000
0000
0000
1000
0000
0000
0000
0000
0000
0000
0000
0010
0001
0000
0000
0000
0000
0000
0000
,
0001
0020
0000
0130
,
1000
0000
0000
0000
0100
1000
0100
0000
0001
0000
0000
0000
0010
0000
0000
0000
0001
0000
0000
0000
0000
0000
0000
0000
1000
0000
0000
0000
0000
0000
0000
0000
,
1000
0200
0000
1300
,
0001
0000
0010
0100
1000
0000
0001
0010
,
0100
0000
1000
0100
0010
0000
0001
1000
,
0010
0000
0001
1000
0100
0000
0010
0001
,
2000
0000
0000
0000
0000
0000
3100
0010
,
0001
0010
0100
1000
0100
0010
0001
0100
,
0010
0001
0010
0000
0000
0000
0000
0000
2000
0000
0000
0000
0000
0000
0000
0000
0000
0000
0000
0000
0000
0000
0000
0000
3100
0000
0000
0000
0010
0000
0000
0000
,
0001
0010
0100
1000
0100
0010
0001
0100
,
0010
0001
0010
0000
0000
0000
0000
0000
2000
0000
0000
0000
0000
0000
0000
0000
0000
0000
0000
0000
0000
0000
0000
0000
3100
0000
0000
0000
0010
0000
0000
0000
,
1000
0000
0001
0010
0200
0000
0000
0000
,
0302
0000
0000
0000
0000
0000
0000
0003
,
0110
0000
0010
0100
0010
0000
0100
0010
0100
0000
0010
0000
0100
0000
0010
0000
,
1101
0010
1101
0010
1101
0010
1101
0010
,
0101
0000
0101
1000
0101
1000
0101
1000
0101
0000
1000
0000
0101
0000
0010
0000
,
1110
0001
1110
0001
1110
0001
1110
0001
,
1100
0000
0011
1100
0011
1100
0011
1100
0011
0000
1100
0000
0011
0000
1100
0000
,
1111
1000
1111
0001
1111
1000
1111
0001
,
0110
0000
1001
0110
1001
0110
1001
0110
1001
0000
0110
0000
1001
0000
0110
0000
,
1011
1000
1101
0100
1110
0010
0111
0001
,
0110
1000
0100
0010
0101
0010
0100
1000
0101
1000
0100
0010
0101
0010
1000
0100
,
1010
0100
0010
0001
1010
0001
0100
0010
0101
1000
0100
0010
1100
0001
0100
0010
,
1001
0000
0110
0110
1001
0000
1000
0100
0011
1000
0100
0010
0101
1000
0100
0010
,
1001
0010
0100
1000
0101
0010
0100
1000
0101
0010
0100
1000
0101
0010
0100
1000
,
0011
0100
0010
0001
1010
0100
0010
0001
1010
0100
1000
0100
0011
0100
0010
0001
,
1100
0000
0011
0011
1100
0000
0100
0010
0101
1000
0100
0010
0101
1000
0100
0010
,
1001
0010
0100
1000
0101
0010
0100
1000
0101
0010
0100
1000
0101
0010
0100
1000
,
0110
0001
0100
0010
1001
0100
0010
0001
1010
0100
1000
0001
1010
0100
0010
0001
,
0110
0000
1001
1001
0110
0000
1000
0100
0011
1000
0100
0010
0101
1000
0100
0010
,
1001
0010
0100
1000
0101
0010
0100
1000
0101
0010
0100
1000
0101
0010
0100
1000
,
0110
0001
0010
1000
0101
0010
0100
1000
0110
0001
0010
0100
1001
0010
0100
1000
,
0001
0100
0010
0100
0001
1000
0001
0100
0010
0001
1000
0101
0101
1010
0001
0100
,
1000
0100
0001
0010
0001
0100
0001
1000
0100
0001
1010
1010
0101
1000
0010
0100
,
0010
0001
0010
0001
0100
0010
0100
0010
1000
0100
1010
0101
1010
0100
1000
0010
,
2001
0000
0010
0001
0010
0000
0001
0010
0001
0000
0010
0000
3001
0000
0000
0000
,
0011
0100
0010
1000
0010
0100
0001
0100
0001
0010
0001
0100
0010
1000
0001
0100
,
0011
0000
1100
0011
1100
0011
1100
0011
1100
0011
1100
0011
1100
0011
1100
0011
,
1000
0001
0100
0010
1000
0010
0100
0010
1000
0001
0100
0010
0100
0001
1000
0010
,
0101
0000
1010
0101
1010
0101
1010
0101
1010
0101
1010
0101
1010
0101
1010
0101
,
0010
0100
1000
0100
0010
0100
1000
0100
0001
0100
1000
0100
0010
0100
1000
0100
,
1001
0010
1001
0010
1001
0010
1001
0010
1001
0100
1010
0100
1010
0100
1010
0100
,
0001
0100
1000
0010
0001
0100
1000
0010
0001
0100
1000
0010
0001
0100
1000
0010
,
0101
1010
0101
1000
0110
1001
0110
1000
0101
1010
0101
1000
0110
1001
0110
1000
,
0011
0110
0001
1100
0011
0110
0001
1100
0011
0110
0001
1100
0011
0110
0001
0100
,
1001
0100
1001
0100
0011
1000
0101
0010
1001
0010
1001
0100
0011
0100
1001
0100
,
1011
2222
0000
0000
,
3333
0000
0000
0000
;
